Donate to Become VIP Users

Direct Link | No wait – instant downloads | Unlimited parallel downloads | Unlimited download speeds

We would like to thank all of our lovely members for continuously supporting our site to bear with server cost and operational cost. Without you we can not make a difference bringing tactools becomes a reliable resource for free sharing stuff. We are so excited to announce that we have launched a new VIP membership system. Being a VIP member is not only to help our site keep growing giving free relaxation and education for everyone, but also you will benefit by being able to access VIP Post section to download files faster and securer without paying for the file hosting service. Furthermore VIP user receive fully support from our staff by leaving comment or opening ticket for the request on client area. Once more time we appreciate all your heart of gold being together with us.

Tactools

Utopia 2013 WEB-DL XViD

Utopia 2013 WEB-DL XViD

Utopia 2013 WEB-DL XViD| Size : 1.09 GB General Complete name : Utopia.avi Format : AVI Format/Info : Audio Video Interleave File size : 1.09 GiB Duration : 1h 50mn Overall bit rate : 1 422 Kbps Writing application : VirtualDubMod 1.5.4.1 (build 2178/release) Writing library : VirtualDubMod build 2178/release Video ID : 0 Format : MPEG-4 Visual Format profile : Advanced Simple@L5 Format settings, BVOP : 1 Format settings, QPel : No Format settings, GMC : No warppoints Format settings, Matrix : Custom Codec ID : XVID Codec ID/Hint : XviD Duration : 1h 50mn Bit rate : 1 159 Kbps Width : 720 pixels Height : 416 pixels Display aspect ratio : 1.731 Frame rate : 25.000 fps Color space : YUV Chroma subsampling : 4:2:0 Bit depth : 8 bits Scan type : Progressive Compression mode : Lossy Bits/(Pixel*Frame) : 0.155 Stream size : 912 MiB (81%) Writing library : XviD 1.1.2 (UTC 2006-11-01) Audio ID : 1 Format : MPEG Audio Format version : Version 1 Format profile : Layer 2 Codec ID :…

Girlhood 2003 DVDRip x264-HANDJOB

Girlhood 2003 DVDRip x264-HANDJOB

Girlhood 2003 DVDRip x264-HANDJOB| Size : 1.44 GB Girlhood.2003.DVDRip.x264-HANDJOB http://www.imdb.com/title/tt0368745/ IMDb user rating: 7.3 / 10 Genre: Documentary, Crime Documentary chronicling America’s justice system. Follows two female inmates – victims of horrific violence and tragedy – who are serving time in a Maryland juvenile detention center. General Container: Matroska Runtime: 1h 22mn Size: 1.44 GiB DXVA: Compatible Minimum settings: Met Video Codec: x264 Resolution: 708×470 ~& 708×531 Aspect ratio: 4:3 Frame rate: 23.976 fps Bit rate: 1 922 Kbps Audio #1: English 5.1ch AC-3 @ 448 Kbps (Main Audio) #2: English 2.0ch AAC @ 96 Kbps (Director’s Commentary) Chapters 00:00:00.000 : en:Baltimore 00:03:10.565 : en:Shanae’s Story 00:07:53.181 : en:Structure 00:09:32.738 : en:Happy Birthday 00:12:41.844 : en:Shanae at Home 00:17:02.438 : en:Sick or Faking? 00:18:30.692 : en:Effective 00:21:57.983 : en:Progress Review 00:24:54.743 : en:Card From Mom 00:27:52.504 : en:Escape Attempt 00:30:54.519 : en:Interview 00:34:59.180 : en:Getting Out 00:38:02.321 : en:Foster Care 00:42:08.192 : en:Vernessa 00:45:40.738 : en:Jersey 00:47:31.181 : en:Crittenton 00:55:29.034 : en:All Good 00:57:57.724 : en:Vicious Cycle 01:01:38.569 : en:On the Streets 01:03:44.153 : en:Megan’s Place 01:06:53.384 :…

Revolution – 2012 (WEB-DL – h 264 – 1080p)

Revolution – 2012 (WEB-DL – h 264 – 1080p)

Revolution – 2012 (WEB-DL – h 264 – 1080p)| Size : 3.2 GB Video ID : 1 Format : AVC Format/Info : Advanced Video Codec Format settings, CABAC : Yes Format settings, ReFrames : 4 frames Codec ID : V_MPEG4/ISO/AVC Duration : 1h 26mn Bit rate : 4 787 Kbps Width : 1 916 pixels Height : 1 076 pixels Display aspect ratio : 16:9 Frame rate mode : Constant Frame rate : 23.976 fps Color space : YUV Chroma subsampling : 4:2:0 Bit depth : 8 bits Scan type : Progressive Bits/(Pixel*Frame) : 0.097 Stream size : 2.90 GiB (91%) Language : English Default : Yes Forced : No Color primaries : BT.709 Transfer characteristics : BT.709 Matrix coefficients : BT.709 Audio ID : 2 Format : AC-3 Format/Info : Audio Coding 3 Mode extension : CM (complete main) Format settings, Endianness : Big Codec ID : A_AC3 Duration : 1h 26mn Bit rate mode : Constant Bit rate : 384 Kbps Channel count : 6 channels Channel positions : Front: L C R, Side: L R,…

24 Hours on Craigslist 2005 DVDRip x264-HANDJOB

24 Hours on Craigslist 2005 DVDRip x264-HANDJOB

24 Hours on Craigslist 2005 DVDRip x264-HANDJOB| Size : 1.02 GB   http://www.imdb.com/title/tt0377029/ IMDb user rating: 5.6 /10 Genre: Documentary Director: Michael Ferris Gibson Producers: Michael Ferris Gibson, Nancy Ellen Jones, Kent Redwine, Ian Reinhard Cinematographers: David Drewry, Juri Koll, Marty Shulman A camera crew sets out to document a day in the life of one of the Web’s most popular message boards in this eclectic documentary. 24 Hours on Craigslist seeks to dissect the enduring appeal of craigslist.org, a simple, text-based, free-of-charge posting service that internet surfers use to sell goods, find soulmates, and recruit employees/colleagues/collaborators. From 121 postings made on August 4, 2003, filmmaker Michael Ferris Gibson charted random San Francisco denizens ranging from the ordinary to the outrageous: Apartment-dwellers seeking roommates; a drag perfomer searching for musicians; a would-be mom looking for the right sperm donor; hedonists looking for sex partners; an engaged couple seeking a rabbi to perform their wedding ceremony. General Container: Matroska Runtime: 1h 20mn Size: 1.02 GiB DXVA: Compatible Minimum settings: Met Video Codec: x264 Resolution: 704×340 ~& 704×380 Aspect ratio:…

Superman Motion Picture Anthology 2011 PLUS EXTRAS 1080p REMUX BluRay AVC MA-HDAccess

Superman Motion Picture Anthology 2011 PLUS EXTRAS 1080p REMUX BluRay AVC MA-HDAccess

http://fastpic.ru/view/48/2015/0430/_5c01a0deca0fcb12b2e11527f874b6c7.jpg Superman Motion Picture Anthology 2011 PLUS EXTRAS 1080p REMUX BluRay AVC MA-HDAccess| Size : 202.37 GB Superman Motion Picture Anthology 2011 PLUS EXTRAS 1080p REMUX BluRay AVC MA-HDAccess This is an 8 disc set, containing 7 feature films and over 20 hours of extras. We hope you enjoy this release as much we did preparing it. Superman.The.Movie.1978.PLUS.EXTRAS.1080p.REMUX.BluRay.AVC.DTS.HD.MA.5.1-HDAccess MEDiA iNFO RELEASE NAME..: Superman.The.Movie.1978.1080p.REMUX.BluRay.AVC.DTS.HD.MA.5.1-HDAccess RELEASE SIZE..: 24.3 GiB RUNTIME…….: 2h 23m 17s FRAMERATE…..: 23.976 fps BITRATE…….: 19928 Kbps RESOLUTION….: 1920 x 1080 AUDIO1……..: English DTS-HD MA 5.1 @ 2011 Kbps AUDIO2……..: English AC3 2.0 @ 192 Kbps – Commentary CHAPTERS……: Included SOURCE……..: 1080p.BluRay.AVC.DTS-HD.MA.5.1-HDAccess SUBTITLES…..: English,Japanese,French,German,Italian,Spanish,Portuguese,Danish, Finnish,Norwegian,Swedish RELEASE DATE..: 18/03/2015 GALLERY LINK..: http://someimage.com/k0PV Superman.The.Movie.Expanded.Edition.2000.PLUS.EXTRAS.1080p.REMUX.BluRay.AVC.DTS.HD.MA.5.1-HDAccess MEDiA iNFO RELEASE NAME..: Superman.Expanded.Edition.2000.1080p.REMUX.BluRay.AVC.DTS.HD.MA.5.1-HDAccess RELEASE SIZE..: 26.0 GiB RUNTIME…….: 2h 31m 28s FRAMERATE…..: 23.976 fps BITRATE…….: 19964 Kbps RESOLUTION….: 1920 x 1080 AUDIO1……..: English DTS-HD MA 5.1 @ 3730 Kbps AUDIO2……..: English AC3 2.0 @ 192 Kbps – Commentary AUDIO3……..: English AC3 5.1 @ 640 Kbps – Music Only Track (Donner Cut) CHAPTERS……: Included SOURCE……..: 1080p.BluRay.AVC.DTS-HD.MA.5.1-HDAccess SUBTITLES…..: English,Japanese,French,German,Italian,Spanish,Portuguese,Danish, Finnish,Norwegian,Russian RELEASE DATE..: 18/03/2015 GALLERY LINK..: http://someimage.com/TtzL…

Documentary – Athene’s Theory of Everything – 2010 1080p AAC

Documentary – Athene’s Theory of Everything – 2010 1080p AAC

Documentary – Athene’s Theory of Everything – 2010 1080p AAC| Size : 1.09 GB General Container MPEG-4 Runtime 49mn 30s Size 1.09 GiB Video Codec h264 Resolution 1920×1080 Aspect ratio 169 Frame rate 25.000 fps Bit rate 3 009 Kbps Audio 2.0ch AAC @ 128 Kbps

Antarctica A Year on Ice 2013 1080p BluRay x264-DON

Antarctica A Year on Ice 2013 1080p BluRay x264-DON

Antarctica A Year on Ice 2013 1080p BluRay x264-DON| Size : 10.45 GB General Unique ID : 201922394579260184544851589246018815092 (0x97E8D6AF8E169826839CB316BAFE8474) Complete name : Antarctica.A.Year.on.Ice.2013.1080p.BluRay.x264-DON.mkv Format : Matroska Format version : Version 4 / Version 2 File size : 10.5 GiB Duration : 1h 32mn Overall bit rate : 16.3 Mbps Movie name : Antarctica: A Year on Ice (2013) Encoded date : UTC 2015-04-18 20:51:39 Writing application : mkvmerge v7.8.0 (‘River Man’) 32bit built on Mar 27 2015 16:18:02 Writing library : libebml v1.3.1 + libmatroska v1.4.2 Video ID : 1 Format : AVC Format/Info : Advanced Video Codec Format settings, CABAC : Yes Format settings, ReFrames : 4 frames Codec ID : V_MPEG4/ISO/AVC Duration : 1h 32mn Bit rate : 14.9 Mbps Width : 1 920 pixels Height : 1 080 pixels Display aspect ratio : 16:9 Frame rate mode : Constant Frame rate : 23.976 fps Color space : YUV Chroma subsampling : 4:2:0 Bit depth : 8 bits Scan type : Progressive Bits/(Pixel*Frame) : 0.300 Stream size : 9.59 GiB (92%) Writing library : x264 core…

Aroused 2013 DOCU DVDRip x264-WaLMaRT

Aroused 2013 DOCU DVDRip x264-WaLMaRT

Aroused 2013 DOCU DVDRip x264-WaLMaRT| Size : 460 MB Size 460 MB Peers 4 Peers (3 Seeders and 1 leechers) Snatched 299 times Uploader N/A Comments None Uploader Comments None IMDB Info Title Aroused (2013) Go to IMDB Release Date 2013-05-03 Ratings Your Rating: 1 2 3 4 5 1 2 3 4 5 (5.5 out of 10) Genres Documentary Cast Summary Belladonna, Kayden Kross, Lisa Ann, Katsuni Runtime 1 hour, 6 minutes Plot Outline A documentary that captures the making of a fine art photographic book featuring 16 of the world’s most successful adult film stars. A documentary that captures the making of a fine art photographic book featuring 16 of the world’s most successful adult film stars.